Notizie: scarica ora l'ultima versione disponibile di SeaMonkey!

Autore Topic: teche rai..  (Letto 377 volte)

0 Utenti e 1 Visitatore stanno visualizzando questo topic.

Offline p060477

  • Post: 1351
teche rai..
« il: 11 Marzo 2019 18:46:27 »
ciao
non riesco a vedere questo video..:
http://www.teche.rai.it/2019/03/omaggio-ad-alina-moradei/

anche in safe mode..

se invece lo apro con edge lo vedo tranquillamente..
:(

Offline Winfox

  • Post: 2584
Re:teche rai..
« Risposta #1 il: 11 Marzo 2019 19:07:50 »
Senti solo l'audio come me?

Offline fabrixx

  • Post: 5671
Re:teche rai..
« Risposta #2 il: 11 Marzo 2019 19:48:17 »
Io sento solo l'audio ma sono in auto e sto su Firefox Beta Andoid.

Inviato dal mio Pixel 2 utilizzando Tapatalk


Offline Iceberg

  • Moderatore
  • Post: 7563
Re:teche rai..
« Risposta #3 il: 11 Marzo 2019 20:27:24 »
Provato con Firefox 66, niente video e niente audio, dopo un po' appare l'avviso Error loading this resource.
Però il video è facilmente scaricabile e visibile, con VLC, con tanto di audio.
 :?:

Edit: potrebbe trattarsi di un problema di quello specifico video, ne ho provati molti altri di teche rai senza problemi.
« Ultima modifica: 11 Marzo 2019 23:55:17 da Iceberg »

Offline p060477

  • Post: 1351
Re:teche rai..
« Risposta #4 il: 12 Marzo 2019 07:43:55 »
confermo che con firefox lo sento ma non lo vedo
e confermo anche pero' che con Edge lo vedo e sento senza problemi..
:(

Offline michro

  • Moderatore
  • Post: 18668
Re:teche rai..
« Risposta #5 il: 12 Marzo 2019 10:19:36 »
Firefox 65.0.1 release e Firefox 66 beta su Mac, solo audio.

Safari, né audio né video

Chrome, solo audio.

Offline p060477

  • Post: 1351
Re:teche rai..
« Risposta #6 il: 12 Marzo 2019 10:36:24 »
Grazie mille per la tua testimonianza

il mistero è che invece con Edge si vede e si sente tranquillamente..

:(

Offline Winfox

  • Post: 2584
Re:teche rai..
« Risposta #7 il: 12 Marzo 2019 19:24:12 »
Si potrebbe tentare di cambiare l'user agent.
Con Chromium ne video ne audio.

Offline p060477

  • Post: 1351
Re:teche rai..
« Risposta #8 il: 12 Marzo 2019 19:32:43 »
con Chromium ultima vers , di oggi 12.3, mi esce -error in loading this source- e non vedo ne' sento alcunchè..
:(

Offline Iceberg

  • Moderatore
  • Post: 7563
Re:teche rai..
« Risposta #9 il: 12 Marzo 2019 21:14:29 »
Che in pratica è lo stesso errore dato dall'imminente ultima versione di Firefox (66).
Confermi che se provi altri video in quella pagina nessun altro ha problemi?

Offline p060477

  • Post: 1351
Re:teche rai..
« Risposta #10 il: 12 Marzo 2019 21:34:16 »
confermo
il mistero e' che Edge,che non funziona quasi mai, in questo caso lo fa vedere tranquillamente..
:(

Offline Iceberg

  • Moderatore
  • Post: 7563
Re:teche rai..
« Risposta #11 il: 12 Marzo 2019 23:40:56 »
Come detto con Firefox 66 niente audio e niente video.
Con Firefox 38 ho l'audio così come con Opera (parlo di Opera 12.14 l'ultima versione DOC).
Credo ci debba essere stato un impiccio nel generare il file.

Offline fabrixx

  • Post: 5671
Re:teche rai..
« Risposta #12 il: 13 Marzo 2019 00:10:31 »
Firefox 67.0a1 Solo audio
Chrome 70 Solo audio

Falkon Browser su Linux si vede e si sente tutto

Ho provato a scaricare il file con:
Codice: [Seleziona]
$ wget http://www.teche.rai.it/wp-content/uploads/2019/03/Il_Giuoco_delle_Vacanze_1_Atto.mp4
VLC lo apre e queste sono le caratteristiche.


Offline p060477

  • Post: 1351
Re:teche rai..
« Risposta #13 il: 13 Marzo 2019 08:37:46 »
grazie fabrixx
quindi edge non e' l'unico browser a farlo vedere...
rimane il mistero del perché gli altri falliscano..
le caratteristiche del file non sembrerebbero -particolari-..
:(

Offline Iceberg

  • Moderatore
  • Post: 7563
Re:teche rai..
« Risposta #14 il: 13 Marzo 2019 20:06:26 »
Hanno rifatto il video e ora si vede. Qualche browser, mal fatto, digeriva gli errori.

Analisi della vecchia versione:
Codice: [Seleziona]
Input #0, mov,mp4,m4a,3gp,3g2,mj2, from 'Omaggio ad Alina Moradei - -omaggio-ad-alina-moradei.mp4':
  Metadata:
    major_brand     : mp42
    minor_version   : 0
    compatible_brands: mp42isomndsd
    creation_time   : 2019-03-08 08:41:17
  Duration: 00:46:58.73, start: 0.000000, bitrate: 1047 kb/s
    Chapter #0:0: start 0.000000, end 2818.730667
    Metadata:
      title           : Start
    Stream #0:0(eng): Video: mpeg4 (Advanced Simple Profile) (mp4v / 0x7634706D), yuv420p, 720x576 [SAR 16:15 DAR 4:3], 914 kb/s, 25 fps, 25 tbr, 25k tbn, 25 tbc (default)
    Metadata:
      creation_time   : 2019-03-08 08:41:17
      handler_name    : Video Media Handler
    Stream #0:1(eng): Audio: aac (LC) (mp4a / 0x6134706D), 48000 Hz, stereo, fltp, 127 kb/s (default)
    Metadata:
      creation_time   : 2019-03-08 08:41:17
      handler_name    : Sound Media Handler

Analisi della nuova versione:
Codice: [Seleziona]
Input #0, mov,mp4,m4a,3gp,3g2,mj2, from 'Omaggio ad Alina Moradei - Rai Teche.mp4':
  Metadata:
    major_brand     : mp42
    minor_version   : 0
    compatible_brands: isommp42
    creation_time   : 2019-03-13 11:55:22
  Duration: 00:46:58.65, start: 0.000000, bitrate: 898 kb/s
    Stream #0:0(eng): Audio: aac (LC) (mp4a / 0x6134706D), 48000 Hz, stereo, fltp, 93 kb/s (default)
    Metadata:
      creation_time   : 2019-03-13 11:55:22
      handler_name    : Mainconcept MP4 Sound Media Handler
    Stream #0:1(eng): Video: h264 (Main) (avc1 / 0x31637661), yuv420p(tv), 854x480 [SAR 1:1 DAR 427:240], 798 kb/s, 50 fps, 50 tbr, 50k tbn, 100 tbc (default)
    Metadata:
      creation_time   : 2019-03-13 11:55:22
      handler_name    : Mainconcept MP4 Video Media Handler
      encoder         : AVC Coding

La qualità è stata un po' abbassata.
Qualcuno ci capisce qualcosa di decisivo per capire dove era l'errore?

Edit.
Provo a rispondermi da solo.
Nel primo c'è:
Codice: [Seleziona]
compatible_brands: mp42isomndsdChe sembra non voler dire nulla, e cercando si trovano solo 2 risultati con altrettanti problemi.

Cambiato in:
Codice: [Seleziona]
compatible_brands: isommp42Che invece un senso ne ha.

« Ultima modifica: 13 Marzo 2019 20:14:46 da Iceberg »

0 Utenti e 1 Visitatore stanno visualizzando questo topic.